#TITLE:Desesperation;
#SUBTITLE:~Magna Trick re-edit~;
#ARTIST:Norman Black;
#TITLETRANSLIT:;
#SUBTITLETRANSLIT:;
#ARTISTTRANSLIT:;
#CREDIT:Magna Trick;
#BANNER:Desesperation-Bn.png;
#BACKGROUND:Desesperation-Bg.png;
#LYRICSPATH:;
#CDTITLE:Magnakcd.png;
#MUSIC:Desesperation.MP3;
#OFFSET:-0.100;
#SAMPLESTART:36.096;
#SAMPLELENGTH:11.980;
#SELECTABLE:YES;
#BPMS:0.000=170.020;
#STOPS:;
#BGCHANGES:;
// cache tags:
#FIRSTBEAT:0.000;
#LASTBEAT:360.000;
#SONGFILENAME:Songs/Chilean Keyboard Megapack 3/(Magna Trick) Desesperation/Desesperation.sm;
#HASMUSIC:1;
#HASBANNER:1;
#MUSICLENGTH:128.574;
// end cache tags

//---------------dance-single - ----------------
#NOTES:
     dance-single:
     :
     Challenge:
     12:
     1.000,1.000,1.000,0.086,1.000,1127.000,191.000,11.000,0.000,3.000:
2002
0000
0000
0000
3003
0000
1100
0022
,
0000
0000
0000
0033
0000
1001
0101
1010
,
0001
1000
0100
1000
0001
0010
0100
0010
0001
1000
0010
0100
0001
1000
0100
0010
,
0001
0010
0100
1000
0010
0100
0001
0100
1000
0100
0001
0010
0100
1000
0010
0100
,
2002
0000
0000
0000
0000
3003
0101
2020
,
0000
0000
0000
0000
3030
1001
0011
1100
,
0001
1000
0010
0100
0001
1000
0100
0010
0001
0010
0100
1000
0010
0100
0001
1000
,
0100
1000
0001
0010
0100
0010
0100
1000
0010
0100
0001
1000
0100
1000
0001
0010
,
0100
1000
0001
1000
0010
0100
0001
1000
0100
0010
0001
1000
0010
0100
0001
1000
,
0100
0010
0001
0010
0100
1000
0010
0100
0001
1000
0100
0010
0001
1000
0010
0100
,
0011
1000
0100
1000
0101
0010
0100
0010
0101
1000
0010
0100
0011
1000
0100
0010
,
1001
0010
0101
1000
0011
0100
0011
1000
0101
1010
0101
1010
1100
0011
1100
0011
,
1001
1000
0010
0001
1000
0001
0010
1000
0001
1000
0010
0001
1000
0001
0010
1000
,
0001
1000
0010
0001
1000
0001
0010
1000
0001
1000
0010
0001
1000
0001
0010
1000
,
0001
1000
0010
0001
1000
0001
0010
1000
0001
1000
0010
0001
1000
0001
0010
1000
,
0101
0000
1001
0000
1100
0000
0011
0000
0100
0010
0001
0010
0200
0000
0000
0000
,
1301
0001
0100
1000
0001
1000
0100
0001
1000
0001
0100
1000
0001
1000
0100
0001
,
1000
0001
0100
1000
0001
1000
0100
0001
1000
0001
0100
1000
0001
1000
0100
0001
,
1000
0001
0100
1000
0001
1000
0100
0001
1000
0001
0100
1000
0001
1000
0100
0001
,
1001
0000
1100
0000
0110
0000
0011
0000
0001
0010
0100
1000
0010
0100
0001
1000
,
0110
0100
1000
0010
0100
0010
1000
0100
0010
0100
1000
0010
0100
0010
1000
0100
,
0010
0100
1000
0010
0100
0010
1000
0100
0010
0100
1000
0010
0100
0010
1000
0100
,
0010
0100
1000
0010
0100
0010
1000
0100
0010
0100
1000
0010
0100
0010
1000
0100
,
0110
0000
0011
0000
1001
0000
1010
0000
0010
1000
0100
1000
0110
0000
0001
1000
,
0110
0010
0001
0100
0010
0100
0001
0010
0100
0010
0001
0100
0010
0100
0001
0010
,
0100
0010
0001
0100
0010
0100
0001
0010
0100
0010
0001
0100
0010
0100
0001
0010
,
0100
0010
0001
0100
0010
0100
0001
0010
0100
0010
0001
0100
0010
0100
0001
0010
,
1100
0000
0110
0000
0011
0000
1001
0000
0010
1000
0001
1000
0110
0000
0010
0100
,
1001
0100
1000
0001
0100
0001
1000
0100
0001
0100
1000
0001
0100
0001
1000
0100
,
0001
0100
1000
0001
0100
0001
1000
0100
0001
0100
1000
0001
0100
0001
1000
0100
,
0001
0100
1000
0001
0100
0001
1000
0100
0001
0100
1000
0001
0100
0001
1000
0100
,
0011
0000
1100
0000
1010
0000
0101
0000
1000
0100
0010
0100
1001
0000
0001
0010
,
1001
0010
0001
1000
0010
1000
0001
0010
1000
0010
0001
1000
0010
1000
0001
0010
,
1000
0010
0001
1000
0010
1000
0001
0010
1000
0010
0001
1000
0010
1000
0001
0010
,
1000
0010
0001
1000
0010
1000
0001
0010
1000
0010
0001
1000
0010
1000
0001
0010
,
1001
0000
1100
0000
0110
0000
0011
0000
1000
0010
0100
0010
1001
0000
0010
0100
,
1001
1000
0010
0001
1000
0001
0010
1000
0001
1000
0010
0001
1000
0001
0010
1000
,
0001
1000
0010
0001
1000
0001
0010
1000
0001
1000
0010
0001
1000
0001
0010
1000
,
0001
1000
0010
0001
1000
0001
0010
1000
0001
1000
0010
0001
1000
0001
0010
1000
,
0101
0000
1001
0000
1100
0000
0011
0000
0100
0010
0001
0010
0200
0000
0000
0000
,
1301
0001
0100
1000
0001
1000
0100
0001
1000
0001
0100
1000
0001
1000
0100
0001
,
1000
0001
0100
1000
0001
1000
0100
0001
1000
0001
0100
1000
0001
1000
0100
0001
,
1000
0001
0100
1000
0001
1000
0100
0001
1000
0001
0100
1000
0001
1000
0100
0001
,
1001
0000
1100
0000
0110
0000
0011
0000
1001
0010
0100
1000
0001
0000
1000
0001
,
1100
0000
0000
0110
0000
0000
0011
0000
0001
1000
0010
0100
0000
0001
0000
1000
,
0100
0000
0000
0010
0000
0000
0001
0000
1000
0010
0100
0001
0000
0010
0000
0100
,
0011
0000
1000
0001
1010
0000
0100
1000
0101
0000
0010
0100
1010
0000
0001
0010
,
1100
0000
1100
0000
1001
0000
1001
0000
0101
1000
0001
0010
0100
0010
0001
1000
,
0010
0000
0000
1001
0000
0000
0110
0000
1000
0001
0100
0001
0000
0110
0000
0100
,
0010
0000
0000
1001
0000
0000
1001
0000
0010
0100
0001
1000
0000
0110
0000
0010
,
0001
0000
0000
1001
0000
0000
0110
0000
1000
0001
0100
0001
0000
0110
0000
0100
,
0010
0000
0000
1001
0000
0000
1001
0000
0010
1000
0001
1000
0000
1001
0000
0100
,
0001
0000
0000
0110
0000
0000
0110
0000
0010
0001
0010
0100
0000
1001
0000
0010
,
1000
0000
0000
1001
0000
0000
0110
0000
0010
1000
0100
1000
0000
1001
0000
0010
,
0100
0000
0000
0110
0000
0000
1001
0000
0100
0010
1000
0001
0000
0110
0000
0100
,
0010
0000
0000
1001
0000
0000
0110
0000
0001
1000
0001
1000
0000
0110
0000
0100
,
0001
0000
0000
1001
0000
0000
0110
0000
0010
0001
0010
1000
0000
0110
0000
0001
,
0100
0000
0000
0110
0000
0000
1001
0000
0100
1000
0010
1000
0000
1001
0000
0010
,
0001
0000
0000
0110
0000
0000
1001
0000
1000
0100
1000
0001
0000
0110
0000
0010
,
0100
0000
0000
0110
0000
0000
1001
0000
0100
1000
0010
0100
0000
1001
0000
0100
,
0001
0000
0000
0110
0000
0000
0110
0000
0010
0001
0010
0100
0000
1001
0000
0010
,
1000
0000
0000
1001
0000
0000
0110
0000
0010
1000
0100
0010
0000
1001
0000
0010
,
0100
0000
0000
0110
0000
0000
1001
0000
1000
0010
0100
0001
0000
1001
0000
0100
,
0010
0000
0000
1001
0000
0000
0110
0000
1000
0010
0001
0100
0000
0010
0000
0100
,
1001
0100
1000
0001
1000
0001
0100
0001
0010
0100
0010
0001
1000
0010
0100
0001
,
1000
0100
1000
0100
1000
0001
1000
0001
0010
0001
0010
0100
0010
0100
0010
0100
,
1001
0000
1000
0100
1010
0000
0001
0100
1001
0000
0010
0100
1010
0000
0001
1000
,
0011
0000
0011
0000
1001
0000
1001
0000
0110
1000
0001
1000
0100
0010
0001
1000
,
0110
0000
0000
1001
0000
0000
0110
0000
1000
0001
0100
0010
0000
1001
0000
0100
,
0010
0000
0000
1001
0000
0000
0110
0000
0100
1000
0010
1000
0000
1001
0000
0100
,
0001
0000
0000
0110
0000
0000
0110
0000
0010
0001
0010
0100
0000
1001
0000
0010
,
1000
0000
0000
1001
0000
0000
0110
0000
0010
1000
0100
0010
0000
1001
0000
1000
,
0100
0000
0000
1001
0000
0000
1001
0000
0100
0010
1000
0100
0000
0110
0000
0001
,
0010
0000
0000
1001
0000
0000
0110
0000
0001
0100
0010
0100
0000
1001
0000
0100
,
0001
0000
0000
0110
0000
0000
1001
0000
0010
0001
0010
0001
0000
1001
0000
0010
,
0100
0000
0000
1001
0000
0000
1001
0000
0100
1000
0001
0100
0000
0001
0000
0010
,
1001
1000
0010
0001
1000
0001
0010
1000
0001
1000
0010
0001
1000
0001
0010
1000
,
0001
1000
0010
0001
1000
0001
0010
1000
0001
1000
0010
0001
1000
0001
0010
1000
,
0001
1000
0010
0001
1000
0001
0010
1000
0001
1000
0010
0001
1000
0001
0010
1000
,
0101
0000
1001
0000
1100
0000
0011
0000
0100
0010
0001
0010
0200
0000
0000
0000
,
1301
0001
0100
1000
0001
1000
0100
0001
1000
0001
0100
1000
0001
1000
0100
0001
,
1000
0001
0100
1000
0001
1000
0100
0001
1000
0001
0100
1000
0001
1000
0100
0001
,
1000
0001
0100
1000
0001
1000
0100
0001
1000
0001
0100
1000
0001
1000
0100
0001
,
1001
0000
1100
0000
0110
0000
0011
0000
0001
0010
0100
1000
0100
0000
0010
0000
,
1001
0100
0010
0001
0010
0100
1000
0010
0100
0001
1000
0010
1100
0001
0110
0001
,
1000
0100
0010
0001
0010
0100
1000
0010
0100
0001
1010
0001
1010
0100
1010
0100
,
0010
0001
0010
0100
1000
0010
0100
0001
1000
0100
1000
0100
0010
0001
0010
0100
,
0010
0100
1000
0010
0100
0001
1000
0100
0010
0100
0010
0001
0010
0001
0010
0100
,
1001
0000
1000
0100
1001
0000
0001
0100
1001
0000
0010
0100
1001
0000
0001
1000
,
1001
0000
1001
0000
0110
0000
1100
0000
0011
1000
0100
0010
0001
0010
0100
1000
,
0010
0000
0000
0000
;
